Hébergeur de fichiers indépendant

Ott Live At Gnomelandia.flac.cue

À propos

Type de fichier
Fichier CUE de < 1 Ko (text/plain)
Confidentialité
Fichier public, envoyé le 7 novembre 2017 à 18:18, depuis l'adresse IP 78.248.x.x (France)
Sécurité
Ne contient aucun Virus ou Malware connus - Dernière vérification: 27 heures
Statistiques
La présente page de téléchargement a été vue 181 fois depuis l'envoi du fichier
Page de téléchargement

Aperçu du fichier


REM DATE 2009
PERFORMER "Ott"
TITLE "Live At Gnomelandia"
FILE "Ott - Live At Gnomelandia.flac" WAVE
  TRACK 01 AUDIO
    TITLE "Somersettler"
    INDEX 01 00:00:00
  TRACK 02 AUDIO
    TITLE "Signals From Bob"
    INDEX 01 08:29:33
  TRACK 03 AUDIO
    TITLE "Spannered In Pilton"
    INDEX 01 18:19:31
  TRACK 04 AUDIO
    TITLE "Joyful Wonder"
    INDEX 01 28:18:23
  TRACK 05 AUDIO
    TITLE "Splitting An Atom"
    INDEX 01 36:33:20
  TRACK 06 AUDIO
    TITLE "Rogue Bagel"
    INDEX 01 44:48:17


Partager le fichier


Télécharger Ott - Live At Gnomelandia.flac.cue


Télécharger Ott - Live At Gnomelandia.flac.cue