Hébergeur de fichiers indépendant

nfo.nfo

À propos

Type de fichier
Fichier NFO de 19 Ko (text/plain)
Confidentialité
Fichier public, envoyé le 24 novembre 2015 à 16:10, depuis l'adresse IP 37.48.x.x (NL)
Sécurité
Ne contient aucun Virus ou Malware connus - Dernière vérification: 23 heures
Statistiques
La présente page de téléchargement a été vue 242 fois depuis l'envoi du fichier
Page de téléchargement

Aperçu du fichier


General
Complete name                            : /Users/Vincent/Music/Walter - Petits meurtres entre amis/1.MOTS DE TETE feat Moax.mp3
Format                                   : MPEG Audio
File size                                : 10.4 MiB
Duration                                 : 5mn 39s
Overall bit rate mode                    : Constant
Overall bit rate                         : 256 Kbps
Album                                    : PETITS MEURTRES ENTRE AMIS
Track name                               : 1.MOTS DE TETE Feat Moax
Track name/Position                      : 1
Performer                                : Walter & Friends
Encoded by                               : Fraunhofer IIS MP3 v04.00.03 (high quality)
Genre                                    : Hip-Hop
Recorded date                            : 2011
Comment                                  : WALTER & VAL MOBB INDUSTRIES PRESENTENT

Audio
Format                                   : MPEG Audio
Format version                           : Version 1
Format profile                           : Layer 3
Mode                                     : Joint stereo
Duration                                 : 5mn 40s
Bit rate mode                            : Constant
Bit rate                                 : 256 Kbps
Channel(s)                               : 2 channels
Sampling rate                            : 44.1 KHz
Compression mode                         : Lossy
Stream size                              : 10.4 MiB (100%)

General
Complete name                            : /Users/Vincent/Music/Walter - Petits meurtres entre amis/10.LE DOUTE EST PERMIS feat Lemdi.mp3
Format                                   : MPEG Audio
File size                                : 4.90 MiB
Duration                                 : 2mn 40s
Overall bit rate mode                    : Constant
Overall bit rate                         : 256 Kbps
Album                                    : PETITS MEURTRES ENTRE AMIS
Track name                               : 10.LE DOUTE EST PERMIS
Track name/Position                      : 1
Performer                                : Walter & Friends
Encoded by                               : Fraunhofer IIS MP3 v04.00.03 (high quality)
Genre                                    : Hip-Hop
Recorded date                            : 2011
Comment                                  : WALTER & VAL MOBB INDUSTRIES PRESENTENT

Audio
Format                                   : MPEG Audio
Format version                           : Version 1
Format profile                           : Layer 3
Mode                                     : Joint stereo
Duration                                 : 2mn 40s
Bit rate mode                            : Constant
Bit rate                                 : 256 Kbps
Channel(s)                               : 2 channels
Sampling rate                            : 44.1 KHz
Compression mode                         : Lossy
Stream size                              : 4.90 MiB (100%)

General
Complete name                            : /Users/Vincent/Music/Walter - Petits meurtres entre amis/11.VAL MOBB FREESTYLE Feat Various Artists.mp3
Format                                   : MPEG Audio
File size                                : 9.85 MiB
Duration                                 : 5mn 22s
Overall bit rate mode                    : Constant
Overall bit rate                         : 256 Kbps
Album                                    : PETITS MEURTRES ENTRE AMIS
Track name                               : 11.VAL MOBB FREESTYLE feat various artists
Track name/Position                      : 1
Performer                                : Walter & Friends
Encoded by                               : Fraunhofer IIS MP3 v04.00.03 (high quality)
Genre                                    : Hip-Hop
Recorded date                            : 2011
Comment                                  : WALTER & VAL MOBB INDUSTRIES PRESENTENT

Audio
Format                                   : MPEG Audio
Format version                           : Version 1
Format profile                           : Layer 3
Mode                                     : Joint stereo
Duration                                 : 5mn 23s
Bit rate mode                            : Constant
Bit rate                                 : 256 Kbps
Channel(s)                               : 2 channels
Sampling rate                            : 44.1 KHz
Compression mode                         : Lossy
Stream size                              : 9.85 MiB (100%)

General
Complete name                            : /Users/Vincent/Music/Walter - Petits meurtres entre amis/12,J'GARDE LA DISTANCE feat Lemdi.mp3
Format                                   : MPEG Audio
File size                                : 6.78 MiB
Duration                                 : 3mn 42s
Overall bit rate mode                    : Constant
Overall bit rate                         : 256 Kbps
Album                                    : PETITS MEURTRES ENTRE AMIS
Track name                               : 12.J'GARDE LA DISTANCE Feat Lemdi
Track name/Position                      : 1
Performer                                : Walter & Friends
Encoded by                               : Fraunhofer IIS MP3 v04.00.03 (high quality)
Genre                                    : Hip-Hop
Recorded date                            : 2011
Comment                                  : WALTER & VAL MOBB INDUSTRIES PRESENTENT

Audio
Format                                   : MPEG Audio
Format version                           : Version 1
Format profile                           : Layer 3
Mode                                     : Joint stereo
Duration                                 : 3mn 42s
Bit rate mode                            : Constant
Bit rate                                 : 256 Kbps
Channel(s)                               : 2 channels
Sampling rate                            : 44.1 KHz
Compression mode                         : Lossy
Stream size                              : 6.78 MiB (100%)

General
Complete name                            : /Users/Vincent/Music/Walter - Petits meurtres entre amis/2.JE SHOOTE feat Nino Ice, Lemdi Moax.mp3
Format                                   : MPEG Audio
File size                                : 5.92 MiB
Duration                                 : 3mn 14s
Overall bit rate mode                    : Constant
Overall bit rate                         : 256 Kbps
Album                                    : PETITS MEURTRES ENTRE AMIS
Track name                               : 2.JE SHOOTE Feat Nino Ice, Lemdi & Moax
Track name/Position                      : 1
Performer                                : Walter & Friends
Encoded by                               : Fraunhofer IIS MP3 v04.00.03 (high quality)
Genre                                    : Hip-Hop
Recorded date                            : 2011
Comment                                  : WALTER & VAL MOBB INDUSTRIES PRESENTENT

Audio
Format                                   : MPEG Audio
Format version                           : Version 1
Format profile                           : Layer 3
Mode                                     : Joint stereo
Duration                                 : 3mn 14s
Bit rate mode                            : Constant
Bit rate                                 : 256 Kbps
Channel(s)                               : 2 channels
Sampling rate                            : 44.1 KHz
Compression mode                         : Lossy
Stream size                              : 5.92 MiB (100%)

General
Complete name                            : /Users/Vincent/Music/Walter - Petits meurtres entre amis/3.SOUS NOS BASKETS Feat Gorah.mp3
Format                                   : MPEG Audio
File size                                : 8.33 MiB
Duration                                 : 4mn 32s
Overall bit rate mode                    : Constant
Overall bit rate                         : 256 Kbps
Album                                    : PETITS MEURTRES ENTRE AMIS
Track name                               : 3.SOUS NOS BASKETS Feat Gorah
Track name/Position                      : 1
Performer                                : Walter & Friends
Encoded by                               : Fraunhofer IIS MP3 v04.00.03 (high quality)
Genre                                    : Hip-Hop
Recorded date                            : 2011
Comment                                  : WALTER & VAL MOBB INDUSTRIES PRESENTENT

Audio
Format                                   : MPEG Audio
Format version                           : Version 1
Format profile                           : Layer 3
Mode                                     : Joint stereo
Duration                                 : 4mn 33s
Bit rate mode                            : Constant
Bit rate                                 : 256 Kbps
Channel(s)                               : 2 channels
Sampling rate                            : 44.1 KHz
Compression mode                         : Lossy
Stream size                              : 8.33 MiB (100%)

General
Complete name                            : /Users/Vincent/Music/Walter - Petits meurtres entre amis/4.ON S'ASSAGIT feat Skyle.mp3
Format                                   : MPEG Audio
File size                                : 5.59 MiB
Duration                                 : 3mn 3s
Overall bit rate mode                    : Constant
Overall bit rate                         : 256 Kbps
Album                                    : PETITS MEURTRES ENTRE AMIS
Track name                               : 4.ON S'SASSAGIT Feat Skyle
Track name/Position                      : 1
Performer                                : Walter & Friends
Encoded by                               : Fraunhofer IIS MP3 v04.00.03 (high quality)
Genre                                    : Hip-Hop
Recorded date                            : 2011
Comment                                  : WALTER & VAL MOBB INDUSTRIES PRESENTENT

Audio
Format                                   : MPEG Audio
Format version                           : Version 1
Format profile                           : Layer 3
Mode                                     : Joint stereo
Duration                                 : 3mn 3s
Bit rate mode                            : Constant
Bit rate                                 : 256 Kbps
Channel(s)                               : 2 channels
Sampling rate                            : 44.1 KHz
Compression mode                         : Lossy
Stream size                              : 5.59 MiB (100%)

General
Complete name                            : /Users/Vincent/Music/Walter - Petits meurtres entre amis/5.MANGE MERDE feat Losee Loss.mp3
Format                                   : MPEG Audio
File size                                : 6.90 MiB
Duration                                 : 3mn 45s
Overall bit rate mode                    : Constant
Overall bit rate                         : 256 Kbps
Album                                    : PETITS MEURTRES ENTRE AMIS
Track name                               : 5.MANGE MERDE Feat Losee Loss
Track name/Position                      : 1
Performer                                : Walter & Friends
Encoded by                               : Fraunhofer IIS MP3 v04.00.03 (high quality)
Genre                                    : Hip-Hop
Recorded date                            : 2011
Comment                                  : WALTER & VAL MOBB INDUSTRIES PRESENTENT

Audio
Format                                   : MPEG Audio
Format version                           : Version 1
Format profile                           : Layer 3
Mode                                     : Joint stereo
Duration                                 : 3mn 46s
Bit rate mode                            : Constant
Bit rate                                 : 256 Kbps
Channel(s)                               : 2 channels
Sampling rate                            : 44.1 KHz
Compression mode                         : Lossy
Stream size                              : 6.90 MiB (100%)

General
Complete name                            : /Users/Vincent/Music/Walter - Petits meurtres entre amis/6.FIDELES AU POSTE Feat Ke+î-üroue+î-ü,NinoIce,AlphaWan,Skar,Ikar,Nekfeu&Lemdi.mp3
Format                                   : MPEG Audio
File size                                : 15.5 MiB
Duration                                 : 8mn 29s
Overall bit rate mode                    : Constant
Overall bit rate                         : 256 Kbps
Album                                    : PETITS MEURTRES ENTRE AMIS
Track name                               : 6.FIDELES AU POSTE feat various artists
Track name/Position                      : 1
Performer                                : Walter & Friends
Encoded by                               : Fraunhofer IIS MP3 v04.00.03 (high quality)
Genre                                    : Hip-Hop
Recorded date                            : 2011
Comment                                  : WALTER & VAL MOBB INDUSTRIES PRESENTENT

Audio
Format                                   : MPEG Audio
Format version                           : Version 1
Format profile                           : Layer 3
Mode                                     : Joint stereo
Duration                                 : 8mn 29s
Bit rate mode                            : Constant
Bit rate                                 : 256 Kbps
Channel(s)                               : 2 channels
Sampling rate                            : 44.1 KHz
Compression mode                         : Lossy
Stream size                              : 15.5 MiB (100%)

General
Complete name                            : /Users/Vincent/Music/Walter - Petits meurtres entre amis/7.J'TOUCHE DU BOIS feat Skyle .mp3
Format                                   : MPEG Audio
File size                                : 4.94 MiB
Duration                                 : 2mn 41s
Overall bit rate mode                    : Constant
Overall bit rate                         : 256 Kbps
Album                                    : PETITS MEURTRES ENTRE AMIS
Track name                               : 7.J'TOUCHE DU BOIS Feat Skyle
Track name/Position                      : 1
Performer                                : Walter & Friends
Encoded by                               : Fraunhofer IIS MP3 v04.00.03 (high quality)
Genre                                    : Hip-Hop
Recorded date                            : 2011
Comment                                  : WALTER & VAL MOBB INDUSTRIES PRESENTENT

Audio
Format                                   : MPEG Audio
Format version                           : Version 1
Format profile                           : Layer 3
Mode                                     : Joint stereo
Duration                                 : 2mn 41s
Bit rate mode                            : Constant
Bit rate                                 : 256 Kbps
Channel(s)                               : 2 channels
Sampling rate                            : 44.1 KHz
Compression mode                         : Lossy
Stream size                              : 4.94 MiB (100%)

General
Complete name                            : /Users/Vincent/Music/Walter - Petits meurtres entre amis/8. LA SCIENCE DES ASTRES feat Nekfeu et Alpha Wann.mp3
Format                                   : MPEG Audio
File size                                : 5.67 MiB
Duration                                 : 3mn 5s
Overall bit rate mode                    : Constant
Overall bit rate                         : 256 Kbps
Comment                                  : Made with Sony ACID Pro 6.0

Audio
Format                                   : MPEG Audio
Format version                           : Version 1
Format profile                           : Layer 3
Duration                                 : 3mn 5s
Bit rate mode                            : Constant
Bit rate                                 : 256 Kbps
Channel(s)                               : 2 channels
Sampling rate                            : 44.1 KHz
Compression mode                         : Lossy
Stream size                              : 5.67 MiB (100%)

General
Complete name                            : /Users/Vincent/Music/Walter - Petits meurtres entre amis/9.QUESTION DE CRAN Feat Various Artists.mp3
Format                                   : MPEG Audio
File size                                : 19.9 MiB
Duration                                 : 10mn 53s
Overall bit rate mode                    : Constant
Overall bit rate                         : 256 Kbps
Album                                    : PETITS MEURTRES ENTRE AMIS
Track name                               : 9.QUESTION DE CRAN feat various artists
Track name/Position                      : 1
Performer                                : Walter & Friends
Encoded by                               : Fraunhofer IIS MP3 v04.00.03 (high quality)
Genre                                    : Hip-Hop
Recorded date                            : 2011
Comment                                  : WALTER & VAL MOBB INDUSTRIES PRESENTENT

Audio
Format                                   : MPEG Audio
Format version                           : Version 1
Format profile                           : Layer 3
Mode                                     : Joint stereo
Duration                                 : 10mn 53s
Bit rate mode                            : Constant
Bit rate                                 : 256 Kbps
Channel(s)                               : 2 channels
Sampling rate                            : 44.1 KHz
Compression mode                         : Lossy
Stream size                              : 19.9 MiB (100%)

General
Complete name                            : /Users/Vincent/Music/Walter - Petits meurtres entre amis/COVER BACK WEB.jpg
Format                                   : JPEG
File size                                : 1.51 MiB

Image
Format                                   : JPEG
Width                                    : 1 472 pixels
Height                                   : 1 445 pixels
Color space                              : YCCB
Chroma subsampling                       : 4:4:4:4
Bit depth                                : 8 bits
Compression mode                         : Lossy
Stream size                              : 1.51 MiB (100%)

General
Complete name                            : /Users/Vincent/Music/Walter - Petits meurtres entre amis/COVER FRONT WEB.jpg
Format                                   : JPEG
File size                                : 1.29 MiB

Image
Format                                   : JPEG
Width                                    : 1 476 pixels
Height                                   : 1 441 pixels
Color space                              : YCCB
Chroma subsampling                       : 4:4:4:4
Bit depth                                : 8 bits
Compression mode                         : Lossy
Stream size                              : 1.29 MiB (100%)

General
Complete name                            : /Users/Vincent/Music/Walter - Petits meurtres entre amis/Thumbs.db
File size                                : 7.50 KiB

General
Complete name                            : /Users/Vincent/Music/Walter - Petits meurtres entre amis/WALTER CD PRINT copie.jpg
Format                                   : JPEG
File size                                : 1.17 MiB

Image
Format                                   : JPEG
Width                                    : 1 406 pixels
Height                                   : 1 406 pixels
Color space                              : YCCB
Chroma subsampling                       : 4:4:4:4
Bit depth                                : 8 bits
Compression mode                         : Lossy
Stream size                              : 1.17 MiB (100%)




Partager le fichier

Télécharger nfo.nfo

Télécharger le fichier (19 Ko)